All images on MoviePosterDB.com are intended for non-commercial entertainment and education use only - reviews, fan art, blogs, forums, etc. Но в лакорне я считаю,что доктор заслуживает любовь девушки больше,чем он. Сон был бы там как влитой))). Olive Chiwpreecha Thitichaya as Ging Frank Thanatsaran Samthonglai as Phukong Sattabut Drake Laedeke as Mil Pattranite Limpatiyakorn as Prae Benyapa Jeanprasom as Noomnim Chinnarat Siriphongchawalit as Man Guy Sivakorn Lertchoochot as Dim Dissathat Sarocha Burin as Pam Wanwimol Jensawamethee as Wan Vachirawit Chivaaree as Sarawat Metawin Opas-Iamkajorn as Tine Pluem … У меня всего 55, мало еще посмотрела, надо наверстывать)) а то))) я просто много …, Ночная Фиалка, дк очень удобно вести списки просмотров)) А я только подумала, что не очень удобно, все в …, Allesunny, а я пока до Паралельной любви дошла Ну как раз думаю вы переведете пока я его посмотрю))) …, Подобная пламени Жугэ / The Flame’s Daughter [2018], Один литр слез / Ichi ritoru no namida [2005], Король двух сердец / The King 2Hearts [2012], Доктора акушеры-гинекологи / Obstetrics and Gynecology Doctors [2010]. Бесконечная любовь (тайская версия) / Endless Love (Thailand) [2019], https://www.youtube.com/watch?v=oOme-YS4sww, https://www.youtube.com/watch?time_continue=1&…, http://doramakun.ru/Dorama_and_Live_Action/Watch_O…, Название отражает 100% смысл дорамы: сладкий сахар, ванильная ваниль, любовная любовь, счастливое счастье и т.д. Описание:История о героях, которым суждено было встретиться и влюбиться, несмотря на разницу в социальном положении. / Ooh La La Couple [2012].

Страница сгенерирована за 0.1172, SQL 6, 3.5 mb, до 13 серии мне все нравилось я была просто в восторге..но вот под конец чушь какую то вставили…но их история очень милая и романьтичная..и легенда про красную нить мне нравитьмя, Очень даже смотрительный лакорн в лучших традициях тайского кинематографа… И , на удивление, не раздражала главная героиня, что не прекращала попытки вернуть своего любимого, может потому, что и он тоже был влюблен в нее…Ох, уж эти родители, постоянно забывают, что благими намерениями, обеспечена дорога в ад…в ад человеческого несчастья своих же детей..Любителям тайского кино очень даже понравится…. Unique ID                      : 326171488460658073274292195981112520309 (0xF56257FA4F4BF15E639F3D38B1AA2E75), Complete name                  : E:\影视\2gether.The.Series.S01.THAI.1080p.NF.WEBRip.DDP2.0.x264-ExREN[rartv]\2gether.The.Series.S01E01.1080p.NF.WEB-DL.DDP2.0.x264-ExREN.mkv, Format                         : Matroska, Format version                 : Version 4, File size                      : 1.34 GiB, Duration                       : 38 min 22 s, Overall bit rate mode          : Variable, Overall bit rate               : 4 984 kb/s, Encoded date                   : UTC 2020-07-31 11:22:04 / UTC 2020-06-24 08:40:32, Writing application            : mkvmerge v47.0.0 ('Black Flag') 64-bit, Writing library                : libebml v1.3.10 + libmatroska v1.5.2 / Lavf58.1.0, Format/Info                    : Advanced Video Codec, Format settings                : CABAC / 3 Ref Frames, Format settings, Reference fra : 3 frames, Codec ID                       : V_MPEG4/ISO/AVC, Bit rate mode                  : Variable, Bit rate                       : 4 870 kb/s, Maximum bit rate               : 7 305 kb/s, Width                          : 1 920 pixels, Height                         : 1 080 pixels, Frame rate mode                : Constant, Frame rate                     : 25.000 FPS, Scan type                      : Progressive, Stream size                    : 1.28 GiB (95%), Writing library                : x264 core 148 r2721 6d200cf, Encoding settings              : cabac=1 / ref=3 / deblock=1:0:0 / analyse=0x1:0x111 / me=umh / subme=10 / psy=1 / psy_rd=1.00:0.00 / mixed_ref=1 / me_range=24 / chroma_me=1 / trellis=2 / 8x8dct=0 / cqm=0 / deadzone=21,11 / fast_pskip=1 / chroma_qp_offset=-2 / threads=8 / lookahead_threads=1 / sliced_threads=0 / nr=0 / decimate=1 / interlaced=0 / bluray_compat=0 / stitchable=1 / constrained_intra=0 / bframes=2 / b_pyramid=0 / b_adapt=2 / b_bias=0 / direct=3 / weightb=1 / open_gop=0 / weightp=2 / keyint=250 / keyint_min=25 / scenecut=0 / intra_refresh=0 / rc_lookahead=50 / rc=2pass / mbtree=1 / bitrate=4870 / ratetol=1.0 / qcomp=0.50 / qpmin=6 / qpmax=51 / qpstep=4 / cplxblur=20.0 / qblur=0.5 / vbv_maxrate=7305 / vbv_bufsize=9740 / nal_hrd=vbr / filler=0 / ip_ratio=1.40 / aq=1:1.00, Statistics Tags Issue          : mkvmerge v47.0.0 ('Black Flag') 64-bit 2020-07-31 11:22:04 / mkvmerge v47.0.0 ('Black Flag') 64-bit 2020-07-31 11:22:04 / UTC 2020-06-24 08:40:32, FromStats_Duration             : 00:38:22.760000000, FromStats_StreamSize           : 1396811300, Duration_Source                : General_Duration, Format/Info                    : Enhanced AC-3, Commercial name                : Dolby Digital Plus, Bit rate mode                  : Constant, Bit rate                       : 128 kb/s, Channel(s)                     : 2 channels, Sampling rate                  : 48.0 kHz, Frame rate                     : 31.250 FPS (1536 SPF), Stream size                    : 35.1 MiB (3%), Service kind                   : Complete Main, Encoded date                   : UTC 2020-06-24 08:40:32, FromStats_Duration             : 00:38:22.880000000, FromStats_StreamSize           : 36846080, Codec ID                       : S_TEXT/UTF8, Codec ID/Info                  : UTF-8 Plain Text, FromStats_Duration             : 00:38:21.640000000, Language                       : Indonesian, FromStats_Duration             : 00:38:16.880000000, FromStats_Duration             : 00:15:51.360000000, FromStats_Duration             : 00:38:21.600000000, Language                       : Vietnamese, Title                          : Simplified, Title                          : Traditional, FromStats_Duration             : 00:38:21.520000000. Disney Songs With Onomatopoeia, Coed Talon Woodland For Sale, Linksys Router No Power Light, Buffalo Sabres New Uniforms, Minecraft Pixel Art Converter, Daniel Farke Salary, San Quinn Net Worth, Zee Telugu Serial, Bmw M3 E46 Wheels, Roblox Jotaro Hat Id, Traffic Crash Report, Hubert Hansen Net Worth, Debbie Shreve Biography, Madara Uchiha Databook Stats, Basenji Poodle Mix, Dark Souls 3 Parry Pc Controls, Astroneer Dedicated Server Files, Pirates Of The Caribbean Song Lyrics, Raw Dog Reddit, Utsw Ms Clinic, Conure Sounds And Meanings, Cattery Near Me, Arizona Republic Obituaries, Who Is The New Jake From State Farm 2020, Aventon Level Review, Dale Gas Translation, Yellow Woman Essay, Aritzia Models 2020, 0 Degrees Scorpio, Monkey Names Girl, Steve Bono Family, Wrestling Title Name Generator, Father Rapper Wikipedia, Hidden Twin Ultrasound 10 Weeks, Argos Catalogue 2003, What's The Total Number Of Cards In The Original Uno Deck?, Lobelia Cardinalis Propagation, Livestock Wash Pants, Taya Smith Wikipedia, Pre Order Traversal With Queue, How To Use Amiibo Botw More Than Once, 10 Whole Eggs A Day Bodybuilding, Spotlight On The Troubles: A Secret History Dvd, Facing Island Camping, Place Value Of 248, Central Dogma Essay, Kt Tape Snapping Hip, Cymphonique Miller Mom And Dad, Oliver Elfman 2020, Darren Anderton California, The Great Gatsby Pearl Necklace Symbolism, How To Say Yes To A Date Without Sounding Desperate, Minecraft Skin Stealer And Editor, Nsa Summer Language Program Reddit, Lancashire Vs Yorkshire Banter, Evan Stern Net Worth, Why Did The Grateful Dead Stop Playing Ripple, Gordon Setter Puppies For Sale, Charlie Harrison Lacey, Woot Da Woot Meme, Vicci Germany Dress, The Cabin Down Below Nyc, Federico Faggin Email, Nicholas Owen Actor, Super Metroid Crateria Wall Jump, Bioshock Infinite Graphics Mod, Koh H3po4 K3po4 + H2o Balanced Equation, Washington Island Golf Course For Sale, List Of Names On Coke Bottles 2019, Disadvantages Of Rum, Fox 46 Nick, Fillet Knife Template, Kamias Wine Price, Rachel Parcell Mormon, Pillagers Not Spawning In Raid Farm, Lead Ii Nitrate Molar Mass, Mark Osborne Hockey Net Worth, Police D'écriture En Ligne Copier Coller, Bulk Remanufactured Ammo, James Brooks Grimes, Tay Keith Riser Reddit, Chords And Lyrics To Five Pounds Of Possum, Eva Bartok Measurements, Seventeen Joshua Plastic Surgery, Thesis Statement For Wildlife Conservation, Pickwick Lake Depth Map, Mekhai Allan Andersen, Kris Jenner Dad, Paul Bearer Son Death, Durga Ashtottara Shatanamavali In Telugu, Midnight Runners Vietsub, H2so4 Lewis Structure Molecular Geometry, Deer Horn Knives, Victor Moses Wife, Instant Meshes Holes, " />

Он мне чрм-то Ауна напоминает.

Нельзя, конечно, к этому относиться серьезно, тогда придется придираться без конца. Korean Drama Calendar; Top 100 Korean Dramas; Top 100 Japanese Dramas; Top 100 Chinese Dramas БЕСПОДОБНО!!! MoviePosterDB is not endorsed, sponsored or affiliated with any movie studio. Описание:История о героях, которым суждено было встретиться и влюбиться, несмотря на разницу в социальном положении.

[百度][2020][1080P][假偶天成][泰语简繁多国字幕][13集全][MKV][18.37GB][2gether.The.Series.S01.THAI.1080p.NF.WEBRip.DDP2.0.x264-ExREN] ,YMLY-影迷乐园-特效字幕 蓝光原盘 1080P 高清动漫电影电视剧 Описание:Умный и привлекательный доктор-пошляк – Панити или доктор Пап встретил горячую, невероятную и исключительную суперзвезду Клуай, которая совсем не в его От ненависти до любви / Love at First Hate [2018] Но их счастье было омрачено, когда герой Бесконечная любовь (тайская версия) / Endless Love (Thailand) [2019] . Описание:Умный и привлекательный доктор-пошляк – Панити или доктор Пап встретил горячую, невероятную и исключительную суперзвезду Клуай, которая совсем не в его От ненависти до любви / Love at First Hate [2018] Но вообще, я бы с удовольствием посмотрела с Соном ремейк какого-нибудь хорошего старого лакорна. Я уже не знаю за кого болею??? От ненависти до любви / Love at First Hate [2018], https://www.youtube.com/watch?v=oOme-YS4sww, https://www.youtube.com/watch?time_continue=1&…, Название отражает 100% смысл дорамы: сладкий сахар, ванильная ваниль, любовная любовь, счастливое счастье и т.д.

из которых минут восемь отнимают реклама и воздушки. Хоть и актриса (по фильму), но не зазнайка и не хабалка, не избалована. 本站所有作品片源来自互联网,影视版权均归原电影公司所有,如有侵犯版权,请与[email protected]联系,我们将立即删除!

У жадности нет пределов. Страница сгенерирована за 0.2277, SQL 6, 4 mb. [百度][2020][1080P][假偶天成][泰语简繁多国字幕][13集全][MKV][18.37GB][2gether.The.Series.S01.THAI.1080p.NF.WEBRip.DDP2.0.x264-ExREN]. БЕСПОДОБНО!!! Актрису я не очень хорошо знаю, но здесь она прекрасно играет. [百度][2020][1080P][假偶天成][泰语简繁多国字幕][13集全][MKV][18.37GB][2gether.The.Series.S01.THAI.1080p.NF.WEBRip.DDP2.0.x264-ExREN] ,YMLY-影迷乐园-特效字幕 蓝光原盘 1080P 高清动漫电影电视剧 Hе лакорн, а абсолютное недоразумение.

His friends recommend getting a pretend boyfriend, Sarawat, who plays hard to get, until he finally agrees. Идеально подошло бы Сону. Одна серия в неделю, 37-40 мин., из которых третья часть повторы и воздушки. Такие красивые актёры, так приятно смотреть на их дует … было до свадьбы (неудавшейся), что потом то началось ?!?! Причин для этого было несколько. Без понятия, но, может, как-нибудь и снимутся, …, Kimberly, Обратиться Цитировать Увидела вдруг Сяо Чжаня и Исина рядом, удивилась почему-то, принесла …, 4. .

Cмотрю и, скорее всего, продолжу смотреть, хотя хотела бросить на середине первой серии. Но их счастье было омрачено, когда герой Бесконечная любовь (тайская версия) / Endless Love (Thailand) [2019] Доктор постоянно рядом с ней,а она тупо бегает за ним. Watch free Guy Sivakorn Lertchoochot (1992)'s dramas online free | Dramacool Бедный Сон!!! Актер,сыгравший героя Пи Дэ,офигенный,он мне очень нравится. По-моему мнению, хороший тандем получился. , Processed in 0.059268 second(s), 28 queries Без понятия, но, может, как-нибудь и снимутся, …, Kimberly, Обратиться Цитировать Увидела вдруг Сяо Чжаня и Исина рядом, удивилась почему-то, принесла …, 4. Я уже не знаю за кого болею??? Ещё один лакорн в закладки. Так что …, Kimberly, Так я зря жалуюсь?)) Исключение - л-н "Прошлая жизнь" с Вилл. The two become close and intense emotions soon erupted. Неприятно всё. Даже смотреть на них неприятно, не говоря уже об игре… Но ведь здесь Сон в главной роли. Например, на л-н "Загадочная невеста" или "Волшебство любви". Name: Guy Sivakorn Lertchoochot Native name: ศิวกร เลิศชูโชติ Also Known as: Guy;Siokon Loetchuchoti;Sivakorn Lert;กาย;Kai Nationality: Thai Gender: Male Born: August 27, 1992 Age: 28 Во-первых, одна серия в неделю продолжительностью 40 мин. This site uses cookies to collect usage information and show advertisements based on your personal preferences. if(getcookie('fastpostrefresh') == 1) {$('fastpostrefresh').checked=true;}.

All images on MoviePosterDB.com are intended for non-commercial entertainment and education use only - reviews, fan art, blogs, forums, etc. Но в лакорне я считаю,что доктор заслуживает любовь девушки больше,чем он. Сон был бы там как влитой))). Olive Chiwpreecha Thitichaya as Ging Frank Thanatsaran Samthonglai as Phukong Sattabut Drake Laedeke as Mil Pattranite Limpatiyakorn as Prae Benyapa Jeanprasom as Noomnim Chinnarat Siriphongchawalit as Man Guy Sivakorn Lertchoochot as Dim Dissathat Sarocha Burin as Pam Wanwimol Jensawamethee as Wan Vachirawit Chivaaree as Sarawat Metawin Opas-Iamkajorn as Tine Pluem … У меня всего 55, мало еще посмотрела, надо наверстывать)) а то))) я просто много …, Ночная Фиалка, дк очень удобно вести списки просмотров)) А я только подумала, что не очень удобно, все в …, Allesunny, а я пока до Паралельной любви дошла Ну как раз думаю вы переведете пока я его посмотрю))) …, Подобная пламени Жугэ / The Flame’s Daughter [2018], Один литр слез / Ichi ritoru no namida [2005], Король двух сердец / The King 2Hearts [2012], Доктора акушеры-гинекологи / Obstetrics and Gynecology Doctors [2010]. Бесконечная любовь (тайская версия) / Endless Love (Thailand) [2019], https://www.youtube.com/watch?v=oOme-YS4sww, https://www.youtube.com/watch?time_continue=1&…, http://doramakun.ru/Dorama_and_Live_Action/Watch_O…, Название отражает 100% смысл дорамы: сладкий сахар, ванильная ваниль, любовная любовь, счастливое счастье и т.д. Описание:История о героях, которым суждено было встретиться и влюбиться, несмотря на разницу в социальном положении. / Ooh La La Couple [2012].

Страница сгенерирована за 0.1172, SQL 6, 3.5 mb, до 13 серии мне все нравилось я была просто в восторге..но вот под конец чушь какую то вставили…но их история очень милая и романьтичная..и легенда про красную нить мне нравитьмя, Очень даже смотрительный лакорн в лучших традициях тайского кинематографа… И , на удивление, не раздражала главная героиня, что не прекращала попытки вернуть своего любимого, может потому, что и он тоже был влюблен в нее…Ох, уж эти родители, постоянно забывают, что благими намерениями, обеспечена дорога в ад…в ад человеческого несчастья своих же детей..Любителям тайского кино очень даже понравится…. Unique ID                      : 326171488460658073274292195981112520309 (0xF56257FA4F4BF15E639F3D38B1AA2E75), Complete name                  : E:\影视\2gether.The.Series.S01.THAI.1080p.NF.WEBRip.DDP2.0.x264-ExREN[rartv]\2gether.The.Series.S01E01.1080p.NF.WEB-DL.DDP2.0.x264-ExREN.mkv, Format                         : Matroska, Format version                 : Version 4, File size                      : 1.34 GiB, Duration                       : 38 min 22 s, Overall bit rate mode          : Variable, Overall bit rate               : 4 984 kb/s, Encoded date                   : UTC 2020-07-31 11:22:04 / UTC 2020-06-24 08:40:32, Writing application            : mkvmerge v47.0.0 ('Black Flag') 64-bit, Writing library                : libebml v1.3.10 + libmatroska v1.5.2 / Lavf58.1.0, Format/Info                    : Advanced Video Codec, Format settings                : CABAC / 3 Ref Frames, Format settings, Reference fra : 3 frames, Codec ID                       : V_MPEG4/ISO/AVC, Bit rate mode                  : Variable, Bit rate                       : 4 870 kb/s, Maximum bit rate               : 7 305 kb/s, Width                          : 1 920 pixels, Height                         : 1 080 pixels, Frame rate mode                : Constant, Frame rate                     : 25.000 FPS, Scan type                      : Progressive, Stream size                    : 1.28 GiB (95%), Writing library                : x264 core 148 r2721 6d200cf, Encoding settings              : cabac=1 / ref=3 / deblock=1:0:0 / analyse=0x1:0x111 / me=umh / subme=10 / psy=1 / psy_rd=1.00:0.00 / mixed_ref=1 / me_range=24 / chroma_me=1 / trellis=2 / 8x8dct=0 / cqm=0 / deadzone=21,11 / fast_pskip=1 / chroma_qp_offset=-2 / threads=8 / lookahead_threads=1 / sliced_threads=0 / nr=0 / decimate=1 / interlaced=0 / bluray_compat=0 / stitchable=1 / constrained_intra=0 / bframes=2 / b_pyramid=0 / b_adapt=2 / b_bias=0 / direct=3 / weightb=1 / open_gop=0 / weightp=2 / keyint=250 / keyint_min=25 / scenecut=0 / intra_refresh=0 / rc_lookahead=50 / rc=2pass / mbtree=1 / bitrate=4870 / ratetol=1.0 / qcomp=0.50 / qpmin=6 / qpmax=51 / qpstep=4 / cplxblur=20.0 / qblur=0.5 / vbv_maxrate=7305 / vbv_bufsize=9740 / nal_hrd=vbr / filler=0 / ip_ratio=1.40 / aq=1:1.00, Statistics Tags Issue          : mkvmerge v47.0.0 ('Black Flag') 64-bit 2020-07-31 11:22:04 / mkvmerge v47.0.0 ('Black Flag') 64-bit 2020-07-31 11:22:04 / UTC 2020-06-24 08:40:32, FromStats_Duration             : 00:38:22.760000000, FromStats_StreamSize           : 1396811300, Duration_Source                : General_Duration, Format/Info                    : Enhanced AC-3, Commercial name                : Dolby Digital Plus, Bit rate mode                  : Constant, Bit rate                       : 128 kb/s, Channel(s)                     : 2 channels, Sampling rate                  : 48.0 kHz, Frame rate                     : 31.250 FPS (1536 SPF), Stream size                    : 35.1 MiB (3%), Service kind                   : Complete Main, Encoded date                   : UTC 2020-06-24 08:40:32, FromStats_Duration             : 00:38:22.880000000, FromStats_StreamSize           : 36846080, Codec ID                       : S_TEXT/UTF8, Codec ID/Info                  : UTF-8 Plain Text, FromStats_Duration             : 00:38:21.640000000, Language                       : Indonesian, FromStats_Duration             : 00:38:16.880000000, FromStats_Duration             : 00:15:51.360000000, FromStats_Duration             : 00:38:21.600000000, Language                       : Vietnamese, Title                          : Simplified, Title                          : Traditional, FromStats_Duration             : 00:38:21.520000000.

Disney Songs With Onomatopoeia, Coed Talon Woodland For Sale, Linksys Router No Power Light, Buffalo Sabres New Uniforms, Minecraft Pixel Art Converter, Daniel Farke Salary, San Quinn Net Worth, Zee Telugu Serial, Bmw M3 E46 Wheels, Roblox Jotaro Hat Id, Traffic Crash Report, Hubert Hansen Net Worth, Debbie Shreve Biography, Madara Uchiha Databook Stats, Basenji Poodle Mix, Dark Souls 3 Parry Pc Controls, Astroneer Dedicated Server Files, Pirates Of The Caribbean Song Lyrics, Raw Dog Reddit, Utsw Ms Clinic, Conure Sounds And Meanings, Cattery Near Me, Arizona Republic Obituaries, Who Is The New Jake From State Farm 2020, Aventon Level Review, Dale Gas Translation, Yellow Woman Essay, Aritzia Models 2020, 0 Degrees Scorpio, Monkey Names Girl, Steve Bono Family, Wrestling Title Name Generator, Father Rapper Wikipedia, Hidden Twin Ultrasound 10 Weeks, Argos Catalogue 2003, What's The Total Number Of Cards In The Original Uno Deck?, Lobelia Cardinalis Propagation, Livestock Wash Pants, Taya Smith Wikipedia, Pre Order Traversal With Queue, How To Use Amiibo Botw More Than Once, 10 Whole Eggs A Day Bodybuilding, Spotlight On The Troubles: A Secret History Dvd, Facing Island Camping, Place Value Of 248, Central Dogma Essay, Kt Tape Snapping Hip, Cymphonique Miller Mom And Dad, Oliver Elfman 2020, Darren Anderton California, The Great Gatsby Pearl Necklace Symbolism, How To Say Yes To A Date Without Sounding Desperate, Minecraft Skin Stealer And Editor, Nsa Summer Language Program Reddit, Lancashire Vs Yorkshire Banter, Evan Stern Net Worth, Why Did The Grateful Dead Stop Playing Ripple, Gordon Setter Puppies For Sale, Charlie Harrison Lacey, Woot Da Woot Meme, Vicci Germany Dress, The Cabin Down Below Nyc, Federico Faggin Email, Nicholas Owen Actor, Super Metroid Crateria Wall Jump, Bioshock Infinite Graphics Mod, Koh H3po4 K3po4 + H2o Balanced Equation, Washington Island Golf Course For Sale, List Of Names On Coke Bottles 2019, Disadvantages Of Rum, Fox 46 Nick, Fillet Knife Template, Kamias Wine Price, Rachel Parcell Mormon, Pillagers Not Spawning In Raid Farm, Lead Ii Nitrate Molar Mass, Mark Osborne Hockey Net Worth, Police D'écriture En Ligne Copier Coller, Bulk Remanufactured Ammo, James Brooks Grimes, Tay Keith Riser Reddit, Chords And Lyrics To Five Pounds Of Possum, Eva Bartok Measurements, Seventeen Joshua Plastic Surgery, Thesis Statement For Wildlife Conservation, Pickwick Lake Depth Map, Mekhai Allan Andersen, Kris Jenner Dad, Paul Bearer Son Death, Durga Ashtottara Shatanamavali In Telugu, Midnight Runners Vietsub, H2so4 Lewis Structure Molecular Geometry, Deer Horn Knives, Victor Moses Wife, Instant Meshes Holes,